Saturday, April 27, 2013

Iron Man 3 2013 CAMRip XviD AC3




http://www.imdb.com/title/tt1300854/


Marvel's "Iron Man 3" pits brash-but-brilliant industrialist Tony Stark/Iron Man against an enemy whose reach knows no bounds. When Stark finds his personal world destroyed at his enemy's hands, he embarks on a harrowing quest to find those responsible. This journey, at every turn, will test his mettle. With his back against the wall, Stark is left to survive by his own devices, relying on his ingenuity and instincts to protect those closest to him. As he fights his way back, Stark discovers the answer to the question that has secretly haunted him: does the man make the suit or does the suit make the man?




Director:
Shane Black

Writers:
Drew Pearce (screenplay), Shane Black (screenplay)

Stars:
Robert Downey Jr., Gwyneth Paltrow, Guy Pearce

Genres:
Action | Sci-Fi | Thriller

Country:
USA | China

Language:
English


Thanks : UnKnOwN




Format : AVI
Format/Info : Audio Video Interleave
File size : 699 MiB
Duration : 1h 57mn
Overall bit rate : 829 Kbps
Writing application : Lavf54.59.103

Video
ID : 0
Format : MPEG-4 Visual
Format profile : Simple@L3
Format settings, BVOP : No
Format settings, QPel : No
Format settings, GMC : No warppoints
Format settings, Matrix : Default (H.263)
Codec ID : XVID
Codec ID/Hint : XviD
Duration : 1h 57mn
Bit rate : 755 Kbps
Width : 640 pixels
Height : 272 pixels
Display aspect ratio : 2.35:1
Frame rate : 25.000 fps
Color space : YUV
Chroma subsampling : 4:2:0
Bit depth : 8 bits
Scan type : Progressive
Compression mode : Lossy
Bits/(Pixel*Frame) : 0.173
Stream size : 636 MiB (91%)
Writing library : XviD 64

Audio
ID : 1
Format : AC-3
Format/Info : Audio Coding 3
Mode extension : CM (complete main)
Format settings, Endianness : Big
Codec ID : 2000
Duration : 1h 57mn
Bit rate mode : Constant
Bit rate : 64.0 Kbps
Channel(s) : 2 channels
Channel positions : Front: L R
Sampling rate : 48.0 KHz
Bit depth : 16 bits
Compression mode : Lossy
Stream size : 54.0 MiB (8%)
Alignment : Aligned on interleaves
Interleave, duration : 32 ms (0.80 video frame)














DOWNLOAD
SUBTITTLE
NB:CARA DOWNLOAD DI TUSFILES.net
 

No comments: